User log in
User registration
Registrations are open
Click here to register
Email: forgotten email?
Password: lost pass?
  Resend activation email
Protect your privacy! Use a VPN When Downloading Torrents
Your IP Address is . Location is .
Your Internet Provider is tracking your torrent activity! Hide your IP ADDRESS with a VPN!
We strongly recommend using NORD VPN to anonymize your torrenting.
Also, while you are using NORD you get No Ads for Demonoid members Get VPN Now!
Details for Storyville 28.Jan.2020 The Gene Revolution Changing Human Nature (1280x720p HD, 50fps, soft Eng subs)
Created by Ratio: 1.00ElsonRoa 1 year ago[ Add to bookmark ]
TV : Documentary : HD 720p : English
Storyville 28.Jan.2020 The Gene Revolution Changing Human Nature (1280x720p HD, 50fps, soft Eng subs)

The biggest tech revolution of the 21st century isn't digital, it's biological. A breakthrough called CRISPR has given us unprecedented control over the basic building blocks of life. It opens the door to curing diseases, reshaping the biosphere and designing our own children.

This Storyville documentary is a provocative exploration of CRISPR's far-reaching implications, through the eyes of the scientists who discovered it, the families it's affecting and the bio-engineers who are testing its limits. How will this new power change our relationship with nature? What will it mean for human evolution? To begin to answer these questions, we must look back billions of years and peer into an uncertain future.

First broadcast:  28 January 2020
Duration:  90 minutes

Torrent dead? Request reseed at torrentgalaxy.org - or ask at elsonroa at tutanota.com


Media info:-
General
Format : MPEG-4
Format profile : Base Media
Codec ID : isom (isom/iso2/avc1/mp41)
File size : 2.76 GiB
Duration : 1h 26mn
Overall bit rate mode : Variable
Overall bit rate : 4 564 Kbps

Video
ID : 1
Format : AVC
Format/Info : Advanced Video Codec
Format profile : [email protected]
Format settings, CABAC : Yes
Format settings, ReFrames : 4 frames
Codec ID : avc1
Codec ID/Info : Advanced Video Coding
Duration : 1h 26mn
Bit rate : 4 429 Kbps
Width : 1 280 pixels
Height : 720 pixels
Display aspect ratio : 16:9
Frame rate mode : Constant
Frame rate : 50.000 fps
Color space : YUV
Chroma subsampling : 4:2:0
Bit depth : 8 bits
Scan type : Progressive
Bits/(Pixel*Frame) : 0.096
Stream size : 2.68 GiB (97%)
Encoded date : UTC 1904-01-01 00:00:00
Tagged date : UTC 1904-01-01 00:00:00
Color range : Limited
Color primaries : BT.709
Transfer characteristics : BT.709
Matrix coefficients : BT.709

Audio
ID : 2
Format : AAC
Format/Info : Advanced Audio Codec
Format profile : LC
Codec ID : 40
Duration : 1h 26mn
Bit rate mode : Variable
Bit rate : 128 Kbps
Maximum bit rate : 130 Kbps
Channel(s) : 2 channels
Channel positions : Front: L R
Sampling rate : 48.0 KHz
Frame rate : 46.875 fps (1024 spf)
Compression mode : Lossy
Stream size : 79.3 MiB (3%)
Language : English

Facebook Twitter Digg Reddit LinkedIn StumbleUpon Email
Show Demonoid some love with BitCoin: 1DNoidyJgB159bLJT5hDnCkZ4uQrhkfBVk How to get BitCoins?
Peers: 0 seeders, 0 leechers, 0 total - Updated: 2 months ago [ Update now ]
Size: 2.76 GB 

Sponsored links
Related torrents
Torrents you may also like:
Download this torrent
Extra information
Tracker: udp://tr2.ysagin.top:2710/announce
Torrent hash: 2A36147D B692D603 4D4DC28E 6B4E692F CD8DD3AE
Files described inside the torrent: 8 [ Click here to show the full list ]
Comments
No comments posted yet

Disclaimer: None of the files shown here are actually hosted or transmitted by this server. The links are provided solely by this site's users. The site moderation is also a service provided by the site's users. The administrator of this site (demonoid.is) cannot be held responsible for what its users post, or any other actions of its users. You may not use this site to distribute or download any material when you do not have the legal rights to do so. It is your own responsibility to adhere to these terms.

By using this site you indicate your agreement to our terms and conditions
   
Link to us | Contact us | API | Commemoration | Twitter: @DemonoidBT | Feeds/RSS | DMCA
This site and the Demonoid logo are Copyright © Demonoid. All rights reserved.

Show Demonoid some love with 1DNoidyJgB159bLJT5hDnCkZ4uQrhkfBVk